Psytribe — это открытое сообщество любителей музыки psychedelic trance, goa и chill-out. Мы посещаем тематические мероприятия и общаемся о культуре нового времени.

Arronax – Crossing The Rubicon

_D9_ 06.12.2014, 11:55 2658 1



REM GENRE Goa Trance
REM DATE July 22, 2014 Neogoa
REM DISCID
REM COMMENT "_"
PERFORMER "Arronax"
TITLE "Crossing The Rubicon"
FILE "01 - Arronax - The Beginning Of Our Journey.wav" WAVE
  TRACK 01 AUDIO
    TITLE "The Beginning Of Our Journey.wav"
    PERFORMER "Arronax"
    INDEX 01 00:00:00
FILE "02 - Arronax - Reaching Exosphere.wav" WAVE
  TRACK 02 AUDIO
    TITLE "Reaching Exosphere.wav"
    PERFORMER "Arronax"
    INDEX 01 00:00:00
FILE "03 - Arronax - The Holtzman Effect.wav" WAVE
  TRACK 03 AUDIO
    TITLE "The Holtzman Effect.wav"
    PERFORMER "Arronax"
    INDEX 01 00:00:00
FILE "04 - Arronax - Dreams Of Planet Earth.wav" WAVE
  TRACK 04 AUDIO
    TITLE "Dreams Of Planet Earth.wav"
    PERFORMER "Arronax"
    INDEX 01 00:00:00
FILE "05 - Arronax - Crossing The Rubicon.wav" WAVE
  TRACK 05 AUDIO
    TITLE "Crossing The Rubicon.wav"
    PERFORMER "Arronax"
    INDEX 01 00:00:00
FILE "06 - Arronax - Lightning Bolt.wav" WAVE
  TRACK 06 AUDIO
    TITLE "Lightning Bolt.wav"
    PERFORMER "Arronax"
    INDEX 01 00:00:00
FILE "07 - Arronax - Crawlers' Pathway.wav" WAVE
  TRACK 07 AUDIO
    TITLE "Crawlers' Pathway.wav"
    PERFORMER "Arronax"
    INDEX 01 00:00:00
FILE "08 - Arronax - Point Of No Return.wav" WAVE
  TRACK 08 AUDIO
    TITLE "Point Of No Return.wav"
    PERFORMER "Arronax"
    INDEX 01 00:00:00

Автор: _D9_

06.12.2014, 11:55 | Последнее редактирование: 06.12.2014, 12:25

0 Пользователей и 1 Гость просматривают эту тему.

Расскажи друзьям!



Страниц: [1]

Комментарии:

Онлайн Splinter

Мужской
12.09.2016, 15:26 | Правка: 12.09.2016, 15:56
хороший да
Страницы: [1] | Наверх↑

« предыдущая тема следующая тема »
Перейти в: